#TITLE:Fantazindy;
#SUBTITLE:;
#ARTIST:Ryo;
#TITLETRANSLIT:;
#SUBTITLETRANSLIT:;
#ARTISTTRANSLIT:;
#CREDIT:;
#BANNER:fantazindy-bn.png;
#BACKGROUND:fantazindy-bg.png;
#LYRICSPATH:;
#CDTITLE:;
#MUSIC:Fantazindy.mp3;
#OFFSET:0.000;
#SAMPLESTART:100.000;
#SAMPLELENGTH:12.000;
#SELECTABLE:YES;
#BPMS:0.000=122.100,35.000=70.000,35.667=284.521,36.000=123.000,99.667=84.160,100.000=245.001,160.000=492.197,168.000=270.000,200.000=292.380,216.000=584.995,240.000=1336.985,260.000=999.989,260.333=899.990,260.667=799.992,261.000=599.995,261.333=499.996,261.667=449.996,262.000=399.997,262.333=349.997,262.667=299.998,263.000=199.998,263.333=99.998,263.667=49.998,264.000=23.278,265.000=174.818,276.000=318.997,396.000=637.992,399.000=159.997,400.000=79.997,401.000=640.012,657.000=615.172,657.333=595.972,657.667=573.573,658.000=552.773,658.333=531.973,658.667=511.974,659.000=491.974,659.333=471.174,659.667=450.374,660.000=428.775,660.333=387.975,660.667=347.176,661.000=305.577,661.333=265.577,661.667=224.777,662.000=183.177,662.333=143.177,662.667=101.577,663.000=59.997;
#STOPS:399.000=0.100
;
#BGCHANGES:;
// cache tags:
#FIRSTBEAT:3.500;
#LASTBEAT:671.000;
#SONGFILENAME:Songs/nhac/Fantazindy v3/fantazindyv3.sm;
#HASMUSIC:1;
#HASBANNER:1;
#MUSICLENGTH:152.502;
// end cache tags

//---------------dance-single - ----------------
#NOTES:
     dance-single:
     :
     Hard:
     12:
     0.992,1.000,0.466,0.544,0.315,905.000,71.000,83.000,9.000,14.000:
0000
0000
0000
0000
0000
0000
0000
0000
0000
0000
0000
0000
0000
0000
0000
0000
0000
0000
0000
0000
0000
0000
0000
0000
0000
0000
0000
0000
0001
0010
0100
1000
,
0002
0000
0000
1000
1000
1000
1000
0000
0000
1000
0000
0000
,
2003
0010
0010
0010
0000
0000
3002
0010
0010
2003
0000
0000
,
3021
0000
0000
1000
1000
1000
1000
0000
0000
1030
0000
0000
,
2000
0100
0100
3100
0000
0000
0002
0010
0013
2000
0000
0000
,
3101
1100
0000
0011
1001
0110
0000
0011
,
0101
1100
0000
0101
0110
1001
0000
0110
,
1100
0101
0000
1001
1100
0110
0000
1001
,
0011
0000
0000
0000
0000
0000
0000
0000
0000
0000
0000
0000
0000
0000
0000
0000
0000
0000
0000
0000
0000
0000
0000
0000
0110
0000
0000
0000
0000
0000
0000
0000
0000
0000
0000
0000
0000
0000
0000
0000
0000
0000
0000
0000
0000
0000
0000
0000
0000
0000
0000
0000
0000
0000
0000
0000
0000
0000
0000
0000
0000
0000
0000
0000
0000
0000
0000
0000
0000
0000
0000
0000
1001
0000
0000
0000
0000
0000
0000
0000
0000
0000
0000
0000
0000
0000
0000
0000
0000
0000
0000
0000
0000
0000
0000
0000
0110
0000
0000
0000
0000
0000
0000
0000
0000
0000
0000
0000
0000
0000
0000
0000
1100
0000
0000
0000
0000
0000
0000
0000
0000
0000
0000
0000
0000
0000
0000
0000
0110
0000
0000
0000
0000
0000
0000
0000
0000
0000
0000
0000
0000
0000
0000
0000
1001
0000
0000
0000
0000
0000
0000
0000
M000
00M0
0000
0000
0000
0000
0000
0000
0M00
0000
000M
0000
0000
0000
0000
0000
00M0
0000
0000
0000
0000
0000
0000
0000
0M00
0000
0000
0000
M00M
0000
0000
0000
0000
0000
0000
0000
0000
0000
0000
0000
,
10M2
0000
0000
2003
0000
0000
0010
0010
0010
3010
0000
0000
,
0002
0010
0010
2003
0100
0100
3012
0000
0000
2103
0000
0000
,
3002
0000
0000
0000
0000
0000
0013
0000
0000
1000
0000
0000
0020
0000
0000
0000
0000
0000
0000
0000
0000
0000
0000
0000
1000
0000
0000
0000
1000
0000
0000
0000
1000
0000
0000
0000
1000
0000
0000
0000
0000
0000
0000
0000
0000
0000
0000
0000
,
0001
0001
0001
0100
0100
0100
2030
0001
0010
3200
0010
0001
,
2310
0000
0000
0001
0001
0001
3021
0000
0000
0230
0000
0000
,
2300
0100
0100
3102
0000
0000
0023
0000
0000
0230
1000
1000
,
1302
0000
0000
1000
1000
1000
1000
0000
0000
0203
0000
0000
,
2300
0010
0010
0010
0000
0000
0100
0100
0000
0010
0010
0010
,
3001
0000
0010
0100
2000
0000
0000
0000
0001
0000
0000
0000
3021
0000
0000
0000
,
1000
0000
0000
0100
0100
0100
2031
0000
0000
3102
0000
0000
,
1003
0000
0000
0000
0000
0000
0010
0000
0000
1000
0000
0000
0020
0000
0000
0000
0100
0000
0000
0000
0100
0000
0000
0000
0100
0000
0000
0000
0000
0000
0000
0000
0000
0000
0000
0000
2030
0000
0000
0000
0000
0000
0000
0000
0000
0000
0000
0000
,
0010
0010
0010
0010
0000
0000
3200
0001
0001
2300
0010
0001
,
3020
0000
0000
0000
0000
0100
0000
0000
1000
0000
0000
0000
0000
0000
0000
0000
0030
0000
0000
0000
0120
0000
0000
0000
2130
0000
0000
0000
0000
0000
0000
0000
,
3001
0000
0000
0000
0000
0000
0010
0000
0000
0000
0000
0000
1000
0100
0001
0000
0000
0000
0000
0000
0010
0000
0000
0000
0100
0000
0000
0000
0000
0000
0010
0000
0000
0000
0000
0000
2000
0000
0000
0000
0000
0000
3200
0000
0000
0010
0000
0000
,
1301
0000
0000
0000
0000
0000
1001
0000
0110
0000
1100
0000
0110
0000
0000
0011
0000
0000
1100
0000
0110
0000
1100
0000
,
0011
0000
0000
1100
0000
0000
0110
0000
1100
0000
0110
0000
1001
0000
0000
0110
0000
0000
1000
0000
0001
0000
1000
0000
,
1000
0001
0100
0001
1000
0001
0010
0001
,
1000
0010
0100
0001
1000
0100
0010
0001
,
0100
0010
1000
0001
0100
0010
1000
0001
,
0010
0001
1000
0001
0100
0010
1000
0100
,
0001
1000
0010
0100
0001
1000
0100
0010
,
1000
0001
0010
0100
0010
1000
0001
0010
,
0001
1000
0100
1000
0010
0100
0001
1000
,
0100
0010
0100
0001
1000
0100
0010
0100
,
0001
1000
0010
0100
1000
0100
1000
0001
,
0010
0001
0100
0010
1000
0001
1000
0100
,
0010
1000
0001
0100
0010
1000
0001
1000
,
0010
0100
0001
1000
0001
0010
0100
0001
,
0100
0010
1000
0001
0010
0100
0010
1000
,
0010
0100
0001
0010
0001
1000
0100
0010
,
0100
0001
1000
0010
0100
0010
1000
0010
,
1000
0100
0001
1000
0010
0100
0001
1000
,
0100
0010
0100
0001
1000
0100
0010
0100
,
1000
0001
1000
0001
0100
0000
0010
0100
,
0010
1000
0000
0001
0010
0000
0010
0000
,
0001
1000
0001
1000
0010
0000
0100
0010
,
1000
0001
0000
0001
0010
0000
0010
0000
,
1000
0100
1000
0010
0001
0000
0100
0010
,
1000
0100
0010
0100
0001
0000
0000
0000
,
0010
0100
0010
0100
1000
0000
0001
0010
,
0100
0000
1000
0000
0100
0010
0001
0010
0100
0000
0000
0000
1001
0000
0000
0000
,
1001
0100
0010
1000
0001
0010
0001
1000
,
0010
0100
0010
1000
0100
0010
0100
0001
,
1000
0010
0100
0001
1000
0010
0100
0001
,
1000
0010
0100
0001
0010
0100
1000
0100
,
0010
1000
0001
0100
,
0010
1000
0100
0010
,
0001
0010
1000
0100
,
0010
0100
0001
0010
,
0100
0000
0010
0100
0010
0000
1000
0000
,
0010
0100
0001
1000
,
1001
0100
0010
1000
0001
0010
0100
0010
,
1000
0001
0100
0010
1000
0001
0100
0010
,
0100
1000
0001
0010
0100
0001
1000
0100
,
0010
0100
0001
1000
0100
0001
0100
0010
,
1000
0001
0010
0100
0001
1000
0100
0010
,
2002
0000
0000
0000
,
3003
1001
0000
0000
,
2002
0000
0000
0000
,
0000
0000
0000
0000
0000
0000
0000
3003
,
1001
0000
0100
0010
0100
0010
0000
0001
,
0010
0000
1000
0001
1000
0001
0000
1000
,
0100
0000
0001
1000
0001
1000
0000
0010
,
0100
0000
0010
0100
0010
0100
0000
1000
,
0100
0000
0001
0100
0001
0100
0000
0001
,
0010
0000
1000
0010
1000
0010
0000
0001
,
0010
0000
1000
0010
0100
0000
0001
0000
,
0020
0000
0230
0000
,
0301
0000
0010
0100
0000
0001
1000
0000
,
0010
0100
0000
0001
0010
0100
1000
0100
,
0010
0000
0100
0010
0000
0010
1000
0000
,
0001
1000
0000
0010
0100
0010
0100
0001
,
1000
0001
1000
0000
0020
0000
0000
0000
,
0000
0000
0031
1000
0001
0000
0010
0000
,
0100
0000
0010
0100
0010
0000
1000
0000
,
0001
0010
2002
0000
,
3013
0100
1000
0002
,
0000
0023
0000
0000
,
1030
0000
1000
0100
1000
0000
0200
0000
,
0302
2003
3020
0032
,
2003
0000
3200
0320
0032
0003
0020
0000
,
0230
0302
2003
3020
,
0130
0001
1000
0000
0010
0000
1100
0000
,
1000
0010
0000
0001
,
2100
0000
3001
0000
0110
0000
1000
0001
,
1000
0000
0010
0000
0100
0001
1000
0000
,
0010
0100
0010
1000
0100
0010
0001
0000
,
0001
1000
0001
1000
0010
0100
0010
0100
,
0001
0010
0100
0001
0010
1000
0100
0010
0001
1000
0100
0010
,
0001
0010
1000
0100
0010
0100
0010
0001
1000
0100
0010
0001
,
1000
0100
0010
1001
,
1001
0110
1001
0000
0100
0000
0001
0000
,
1000
0010
0100
0001
,
1000
0100
0010
0100
,
0001
1000
0100
0010
,
0100
0001
1000
0100
,
0010
1000
0001
0010
,
1000
0200
0010
1000
,
0010
0302
1000
0023
,
0001
1030
0001
0100
,
0010
1000
0100
1000
,
0001
0010
0001
0100
,
0010
1000
0001
0100
,
0010
1000
0001
0010
,
1000
0001
0010
0100
,
1000
0002
0100
1000
,
0100
0023
0001
0230
,
1000
0302
1000
0010
,
0100
0013
1000
0001
,
0010
0200
0010
1000
,
0001
0010
0301
1002
,
0100
0023
1000
0100
,
1000
0032
0100
1000
,
0010
2003
0100
0001
,
0010
3200
0001
1000
,
0010
0320
1000
0001
,
1000
0100
0001
0100
,
0001
1000
0001
1000
,
0001
0100
0001
0100
,
0001
1000
0001
1000
,
0001
0100
0001
0100
,
0001
1000
0001
1000
,
0001
0100
0001
0100
,
0031
1000
0100
0001
,
1000
0010
0100
0001
,
1000
0100
0010
0100
,
0001
1000
0100
0010
,
0100
0001
1000
0100
,
0010
1000
0100
0001
,
0010
0001
1000
0100
,
0010
0100
0001
1000
,
0100
0010
1000
0100
,
1000
0001
0010
0100
,
0010
1000
0001
0010
,
0100
0001
1000
0100
,
0010
1000
0001
0010
,
0001
0100
0010
1000
,
0100
0001
0010
0100
,
0001
1000
0100
0010
,
0001
0100
0010
1000
,
0001
0100
0010
0001
,
0010
0001
0100
1000
,
0001
0100
1000
0001
,
0010
0001
0100
0010
,
1000
0100
0001
0100
,
0010
1000
0001
0010
,
0100
0001
0100
0010
,
1000
0001
0100
0010
,
1000
0001
0010
0100
,
0010
1000
0001
0100
,
0010
0100
0010
1000
,
0001
0000
0100
1000
0010
0000
1000
0000
,
0001
0010
0100
0001
,
1000
0000
0010
1000
0100
0000
0001
0010
,
1000
0000
0010
0100
1000
0001
0010
0100
,
1000
0001
0220
0000
0000
0000
0000
0000
,
0000
0000
0000
0000
,
0000
0000
0000
0000
,
0000
0000
0000
0330
;

//---------------dance-single - ----------------
#NOTES:
     dance-single:
     :
     Medium:
     9:
     0.655,1.000,0.138,0.505,0.141,601.000,21.000,77.000,11.000,7.000:
0000
0000
0000
0000
,
0002
0000
0000
0000
0000
0000
0000
0000
0000
0000
0000
0000
0000
0000
0000
0000
0000
0000
0000
0000
0000
0000
0000
0000
0000
0000
0000
0000
0000
0000
0000
0000
0000
0000
0000
0000
0000
0000
0000
0000
0000
0000
0000
0000
0000
0000
0000
0000
0000
0000
0000
0000
0000
0000
0000
0000
0000
0000
0000
0000
0000
0000
0000
0000
0000
0000
0000
0000
0000
0000
0000
0000
0000
0000
0000
0000
0000
0000
0000
0000
0023
0000
0000
0000
0000
0000
0000
0000
0000
0000
0000
0000
0000
0000
0000
0000
0000
0000
0000
0000
0000
0000
0000
0000
0000
0000
0000
0000
0000
0000
0000
0000
0000
0000
0000
0000
0000
0000
0000
0000
0000
0000
0000
0000
0000
0000
0000
0000
2030
0000
0000
0000
0000
0000
0000
0000
0000
0000
0000
0000
0000
0000
0000
0000
0000
0000
0000
0000
0000
0000
0000
0000
0000
0000
0000
0000
0000
0000
0000
0000
0000
0000
0000
0000
0000
0000
0000
0000
0000
0000
0000
0000
0000
0000
0000
0000
0000
0000
0000
0000
0001
0000
0000
0000
0000
0000
0010
0000
0000
0000
0000
0000
,
3200
0000
0302
0000
0000
0023
0000
0000
2030
0000
0000
0000
,
3012
0000
0000
0000
0000
0000
0000
0000
0203
0000
0000
0000
0000
0000
0000
0000
0000
0000
0000
0000
0320
0000
0000
0000
0000
0000
0000
0000
0000
0000
0000
0000
2030
0000
0000
0000
0000
0000
0000
0000
0000
0000
0001
0000
3000
0010
0000
0000
,
0200
0000
0000
0000
0000
0000
0000
0000
0000
0000
0000
0000
0000
0000
0000
0000
0000
0000
0000
0000
0000
0000
0000
0000
0000
0000
0000
0000
0000
0000
0000
0000
0320
0000
0000
0000
0000
0000
0000
0000
0000
0000
0000
0000
0000
0000
0000
0000
0000
0000
0000
0000
0000
0000
0000
0000
0000
0000
0000
0000
0000
0000
0000
0000
0000
0000
0000
0000
0000
0000
0000
0000
0000
0000
0000
0000
0000
0000
0000
0000
0032
0000
0000
0000
0000
0000
0000
0000
0000
0000
0000
0000
0000
0000
0000
0000
0000
0000
0000
0000
0000
0000
0000
0000
0000
0000
0000
0000
0000
0000
0000
0000
0000
0000
0000
0000
0000
0000
0000
0000
0000
0000
0000
0000
0000
0000
0000
0000
2003
0000
0000
0000
0000
0000
0000
0000
0000
0000
0000
0000
0000
0000
0000
0000
0000
0000
0000
0000
0000
0000
0000
0000
0000
0000
0000
0000
0000
0000
0000
0000
0000
0000
0000
0000
0000
0000
0000
0000
0000
0000
0000
0000
0000
0000
0001
0000
3000
0000
0000
0000
0010
0000
0000
0000
0000
0000
0100
0000
0000
0000
0000
0000
,
1000
1000
0000
0010
0100
0010
0000
0001
,
1000
0001
0000
0100
1000
0100
0000
0001
,
0010
0001
0000
0100
0010
0100
0000
0001
,
1000
0000
0000
0000
0000
0000
0001
0000
0000
0000
0000
0000
0000
0000
0000
0000
0000
0000
0100
0000
0000
0000
0000
0000
1000
0000
0000
0000
0001
0000
0000
0000
1000
0000
0000
0000
0001
0000
M0M0
0M00
000M
0M00
00M0
M000
0M00
00M0
000M
M000
,
0110
0000
0010
1000
0020
0000
0000
0000
0000
0000
0000
0000
0000
0000
0000
0000
,
0000
0000
0032
0023
,
2030
0000
3100
0001
0200
0000
0000
0000
0000
0000
0000
0000
0000
0000
0000
0000
,
0000
0000
0302
2003
,
3020
0000
2030
3002
,
0023
2030
3200
0302
,
0023
0000
0000
2030
,
3200
0000
0000
0000
,
1301
0000
0010
0100
0020
0000
0000
0000
0000
0000
0000
0000
2032
0000
0000
0000
,
0000
0000
3023
0230
,
0301
0000
1000
0001
2000
0000
0000
0000
0000
0000
0000
0000
3020
0000
0000
0000
,
0000
0000
0032
2003
,
3020
0000
0000
0000
0000
0230
2300
0000
,
0000
0000
0000
0000
0010
0000
3001
0000
0000
0000
0000
0000
0010
0000
0000
0000
0000
0000
0000
0000
0010
0000
0000
0000
1000
0000
0000
0000
0000
0000
0010
0000
0000
0000
0000
0000
0200
0000
0000
0000
0000
0000
0301
0000
0000
0010
0000
0000
,
1100
0000
0000
0000
0000
0000
0001
0000
1000
0000
0001
0000
1000
0000
0000
0110
0000
0000
0010
0000
0100
0000
0010
0000
,
0100
0000
0000
0011
0000
0000
1000
0000
0010
0000
1000
0000
0010
0000
0000
1001
0000
0000
0001
0000
1000
0000
0010
0000
,
1000
0001
1000
0001
0100
0010
0100
1000
,
0001
0010
0001
0010
1000
0100
0010
0001
,
0100
0010
0100
0010
0001
0100
0001
0100
,
1000
0010
1000
0010
0100
0001
0100
0001
,
0010
0001
0010
0001
1000
0100
1000
0100
,
0010
0100
0010
0100
0001
1000
0001
1000
,
0001
0100
0001
0100
0010
1000
0010
1000
,
0001
0010
0001
0010
1000
0100
1000
0100
,
0010
1000
0010
1000
0001
1000
0001
1000
,
0001
0010
0001
0010
0001
0100
0001
0100
,
1000
0001
1000
0001
0100
0010
0100
0010
,
1000
0001
1000
0001
0100
0010
0100
0010
,
1000
0100
1000
0100
0001
0010
0001
0010
,
0100
0010
0100
0010
0001
1000
0010
0100
,
0001
1000
0010
0100
0001
1000
0001
1000
,
0001
0010
1000
0001
,
0010
0100
0001
1000
,
0001
0000
0100
0000
0001
0000
0100
0010
,
1000
0000
0010
0000
0001
0000
0100
0010
,
0100
0000
1000
0000
0010
0000
0001
1000
,
0001
0000
0100
0000
0001
0000
0100
0010
,
1000
0000
0010
0000
0100
0000
0001
0010
,
1000
0000
0010
0000
0100
0000
0001
1000
,
0001
0000
0100
0000
1000
0000
0010
0100
,
0010
0000
0001
0000
1000
0000
0010
0100
,
1000
0001
0100
0010
0100
0000
0001
0000
,
0010
0100
1000
0100
0010
0100
0010
1000
,
0001
0010
1000
0001
0010
0100
0010
1000
,
0000
0010
0100
0010
0100
0000
0001
0000
,
1000
0000
0001
0010
,
0100
0010
1000
0000
,
0001
1000
0001
1000
,
0010
0100
0010
0000
,
0001
1000
0001
1000
,
0010
0100
0010
0100
,
0001
0010
0100
1000
,
0001
0010
0100
1000
,
0001
0010
0100
1000
,
0001
0010
0100
1000
,
0001
0010
0100
1000
,
0200
0000
0000
0000
,
0000
0311
0000
0000
,
2002
0000
0000
0000
,
0000
0000
0000
0000
,
3013
0100
0020
0000
,
1030
0001
0200
0000
,
0310
1000
0002
0000
,
0103
0010
2000
0000
,
3001
0010
2000
0000
,
3001
0100
0020
0000
,
2030
0000
0000
0002
,
3203
0000
0320
0000
,
0031
0000
1000
0001
0000
1000
0001
0000
,
0010
0100
0000
0010
0100
0001
1000
0001
,
1000
0000
0010
0100
0000
0001
1000
0000
,
0010
0100
0000
0001
1000
0001
1000
0001
,
1000
0100
0010
0000
0001
0000
0000
0000
,
0000
0010
0100
0010
,
1000
0001
0010
0100
,
0010
0100
1001
0000
,
0020
0230
0302
2003
,
0000
3020
0000
0000
,
0031
0000
1000
0001
1000
0000
0010
0000
,
0200
0302
2003
3020
,
0230
0302
2003
3200
,
0302
2003
3020
0230
,
0301
1000
0010
0100
,
1001
0100
0000
0010
,
1001
0000
0011
0000
,
1100
0000
0110
0000
,
1001
0000
0011
0000
,
0110
0000
1001
0000
,
0001
0010
0100
0001
1000
0100
0010
1000
,
0001
0010
0100
0001
1000
0100
0010
0100
,
1000
0001
1000
0001
,
0010
0100
0001
0000
0000
0000
1000
0000
,
0000
0010
0000
0100
,
0000
0001
0000
1000
,
0000
0100
0000
0010
,
0000
1000
0000
0001
,
0000
0010
0000
0100
,
0000
0001
0000
1000
,
0000
0010
0000
0100
,
0000
0001
0000
1000
,
0000
0001
0000
0010
,
0000
0100
0000
0001
,
0000
1000
0000
0100
,
0000
0001
0000
0100
,
0000
0010
0000
1000
,
0000
0001
0000
0010
,
0000
0100
0000
0010
,
0000
1000
0000
0001
,
0000
0100
0000
0010
,
0000
1000
0000
0100
,
0000
0001
0000
0010
,
0000
0001
0000
1000
,
0000
0100
0000
0001
,
0000
0010
0000
0100
,
0000
0001
0000
1000
,
0000
0100
0000
0010
,
0000
1000
0000
0001
,
0000
0010
0000
0001
,
0000
1000
0000
0100
,
0000
0010
0000
1000
,
0000
0001
0000
0010
,
0000
0100
0000
0010
,
0000
1000
0000
0001
,
0000
0010
0000
0100
,
0000
0001
0000
1000
,
0000
0100
0000
0010
,
0000
1000
0000
0001
,
0000
0010
0000
0100
,
0000
1000
0000
0001
,
0000
0010
0000
0001
,
0000
1000
0000
0010
,
0000
0100
0000
1000
,
0000
0001
0000
0010
,
0000
0001
0000
1000
,
0000
0010
0000
0100
,
0000
0001
0000
1000
,
0000
0100
0000
0001
,
0000
0010
0000
0001
,
0000
1000
0000
0100
,
0000
0001
0000
0010
,
0000
0100
0000
1000
,
0000
0001
0000
0010
,
0000
0100
0000
1000
,
0000
0001
0000
0010
,
0000
0001
0000
1000
,
0000
0010
0000
0100
,
0000
0001
0000
1000
,
0000
0010
0000
0100
,
0000
1000
0000
0001
,
0000
0100
0000
0010
,
0000
1000
0000
0001
,
0000
0010
0000
0001
,
0000
1000
0000
0100
,
0000
1000
0000
0001
,
0000
0010
0000
0100
,
0000
2002
0000
0000
,
0000
0000
0000
0000
,
0000
0000
0000
0000
,
0000
0000
0000
3003
;
